Direct MALANG (2020) Hindi WEB-DL - 1080p - UNTOUCHED - (DD+5.1 - 384Kbps)-TeluguCZ

  • Rapidgator.net
  • Rapidgator.net image description

TeluguCZ

Administrator
Administrator
Apr 3, 2020
33
29
18


General

Format : Matroska
File size : 2.64 GiB
Duration : 2 h 11 min
Overall bit rate : 2 877 kb/s
Encoded date : UTC 2020-05-15 15:29:14

Video

Format : AVC
Duration : 2 h 11 min
Bit rate : 2 492 kb/s
Width : 1 920 pixels
Height : 1 080 pixels
Display aspect ratio : 16:9
Frame rate mode : Constant
Frame rate : 24.000 FPS
Color space : YUV
Chroma subsampling : 4:2:0
Bit depth : 8 bits
Scan type : Progressive
Bits/(Pixel*Frame) : 0.050
Stream size : 2.29 GiB (87%)
Title :
You do not have permission to view link Log in or register now.

Language : Hindi
Default : Yes
Forced : No

Audio

Format : E-AC-3
Duration : 2 h 11 min
Bit rate mode : Constant
Bit rate : 384 kb/s
Channel(s) : 6 channels
Channel positions : Front: L C R, Side: L R, LFE
Sampling rate : 48.0 kHz
Frame rate : 187.500 FPS (256 SPF)
Compression mode : Lossy
Stream size : 361 MiB (13%)
Title :
You do not have permission to view link Log in or register now.

Language : Hindi
Service kind : Complete Main
Default : Yes
Forced : No









DOWNLOAD

 
  • Like
Reactions: Farid and Mason19