Direct Killer (2019) 1080p Web-DL.x264.AAC- TeluguCZ

  • Rapidgator.net
  • Rapidgator.net image description

TeluguCZ

Administrator
Administrator
Apr 3, 2020
33
29
18


General

Complete name : Killer (2019) 1080p Web-DL.x264 - TeluguCZ
Format : Matroska
File size : 1.42 GiB
Duration : 1 h 42 min
Overall bit rate : 1 989 kb/s

Video

Format : AVC
Codec ID : V_MPEG4/ISO/AVC
Duration : 1 h 42 min
Bit rate mode : Variable
Bit rate : 1 798 kb/s
Maximum bit rate : 2 700 kb/s
Width : 1 920 pixels
Height : 1 080 pixels
Display aspect ratio : 16:9
Frame rate mode : Constant
Frame rate : 25.000 FPS
Standard : PAL
Color space : YUV
Chroma subsampling : 4:2:0
Bit depth : 8 bits
Scan type : Progressive
Bits/(Pixel*Frame) : 0.035
Stream size : 1.28 GiB (90%)
Title :
You do not have permission to view link Log in or register now.

Language : Telugu
Default : Yes
Forced : No

Audio

Format : AAC
Duration : 1 h 42 min
Bit rate : 192 kb/s
Channel(s) : 2 channels
Channel positions : Front: L R
Sampling rate : 48.0 kHz
Frame rate : 46.875 FPS (1024 SPF)
Compression mode : Lossy
Delay relative to video : -33 ms
Stream size : 138 MiB (10%)
Title :
You do not have permission to view link Log in or register now.

Language : Telugu
Default : Yes
Forced : No








DOWNLOAD

 
Last edited: